Movies torrents - Other torrents

The.Girl.2014.DVDRip.x264-BiPOLAR[PRiME] torrent

Download Direct: The.Girl.2014.DVDRip.x264-BiPOLAR[PRiME] - No Client needed
(0) (0)
Download torrent: The.Girl.2014.DVDRip.x264-BiPOLAR[PRiME] torrent download
Torrent created: 12 Jan 2017 09:53:32
Torrent added: 12 Jan 2017 10:05:02 Report this torrent as fake!
Torrent's info hash: 9794EE850DFD16FBC2686E9906BD53201CC1E53C
Category: Movies / Other
Seeds: - Scraping... Last scraped 20 h ago
Leeches: -
Downloads: -
Announce(s):
Tracker S L DL
http://explodie.org:6969/announce---
http://tracker.tfile.me/announce---
http://bigfoot1942.sektori.org:6969/announce---
udp://eddie4.nl:6969/announce---
udp://tracker4.piratux.com:6969/announce---
udp://tracker.trackerfix.com:80/announce
udp://tracker.pomf.se:80/announce
udp://torrent.gresille.org:80/announce
udp://9.rarbg.me:2710/announce
udp://tracker.leechers-paradise.org:6969/announce
udp://glotorrents.pw:6969/announce
udp://tracker.opentrackr.org:1337/announce
udp://tracker.blackunicorn.xyz:6969/announce
udp://tracker.internetwarriors.net:1337/announce
udp://p4p.arenabg.ch:1337/announce
udp://tracker.coppersurfer.tk:6969/announce
udp://9.rarbg.to:2710/announce
udp://tracker.openbittorrent.com:80/announce
udp://explodie.org:6969/announce
udp://9.rarbg.com:2710/announce
udp://p4p.arenabg.com:1337/announce
udp://ipv4.tracker.harry.lu:80/announce
udp://tracker.zer0day.to:1337/announce
udp://tracker.ilibr.org:80/announce
udp://tracker.ilibr.org:6969/announce
Total Size: 769.34 MB
Files:
The.Girl.2014.DVDRip.x264-BiPOLAR[PRiME]/Please Support!! Read More!!!.txt - 232 B
The.Girl.2014.DVDRip.x264-BiPOLAR[PRiME]/Torrent Downloaded From 1337x.to.txt - 69 B
The.Girl.2014.DVDRip.x264-BiPOLAR[PRiME]/Torrent Downloaded From ExtraTorrent.cc.txt - 446 B
The.Girl.2014.DVDRip.x264-BiPOLAR[PRiME]/Torrent downloaded from AhaShare.com.txt - 59 B
The.Girl.2014.DVDRip.x264-BiPOLAR[PRiME]/the.girl.2014.dvdrip.x264-bipolar[PRiME].mkv - 769.34 MB

Description


The.Girl.2014.DVDRip.x264-BiPOLAR[PRiME]

ImDb: http://www.imdb.com/title/tt2833580



Complete name : the.girl.2014.dvdrip.x264-bipolar[PRiME].mkv
Format : Matroska
Format version : Version 4 / Version 2
File size : 769 MiB
Duration : 1 h 19 min
Overall bit rate : 1 359 kb/s
Encoded date : UTC 2017-01-12 07:18:04
Writing application : mkvmerge v8.5.1 ('Where you lead I will follow') 64bit
Writing library : libebml v1.3.3 + libmatroska v1.4.4

Video
ID : 1
Format : AVC
Format/Info : Advanced Video Codec
Format profile : [email protected]/* */
Format settings, CABAC : Yes
Format settings, ReFrames : 5 frames
Codec ID : V_MPEG4/ISO/AVC
Duration : 1 h 19 min
Bit rate : 1 216 kb/s
Width : 720 pixels
Height : 406 pixels
Display aspect ratio : 16:9
Frame rate mode : Constant
Frame rate : 23.976 (24000/1001) FPS
Color space : YUV
Chroma subsampling : 4:2:0
Bit depth : 8 bits
Scan type : Progressive
Bits/(Pixel*Frame) : 0.173
Stream size : 688 MiB (89%)
Writing library : x264 core 148 r2744 b97ae06
Encoding settings : cabac=1 / ref=5 / deblock=1:-2:-2 / analyse=0x3:0x113 / me=umh / subme=8 / psy=1 / psy_rd=0.80:0.00 / mixed_ref=1 / me_range=16 / chroma_me=1 / trellis=2 / 8x8dct=1 / cqm=0 / deadzone=21,11 / fast_pskip=1 / chroma_qp_offset=-2 / threads=13 / lookahead_threads=2 / sliced_threads=0 / nr=0 / decimate=1 / interlaced=0 / bluray_compat=0 / constrained_intra=0 / bframes=3 / b_pyramid=2 / b_adapt=1 / b_bias=0 / direct=3 / weightb=1 / open_gop=0 / weightp=2 / keyint=240 / keyint_min=23 / scenecut=40 / intra_refresh=0 / rc_lookahead=50 / rc=crf / mbtree=1 / crf=19.0 / qcomp=0.60 / qpmin=0 / qpmax=69 / qpstep=4 / ip_ratio=1.40 / aq=1:1.00
Language : English
Default : Yes
Forced : No

Audio
ID : 2
Format : AAC
Format/Info : Advanced Audio Codec
Format profile : LC
Codec ID : A_AAC
Duration : 1 h 19 min
Bit rate : 141 kb/s
Channel(s) : 2 channels
Channel positions : Front: L R
Sampling rate : 48.0 kHz
Frame rate : 46.875 FPS (1024 spf)
Compression mode : Lossy
Delay relative to video : 9 ms
Stream size : 79.7 MiB (10%)
Language : English
Default : Yes
Forced : No

Menu
00:00:00.000 : en:Chapter 01
00:00:14.033 : en:Chapter 02
00:02:14.033 : en:Chapter 03
00:08:06.533 : en:Chapter 04
00:13:27.033 : en:Chapter 05
00:19:55.533 : en:Chapter 06
00:26:14.533 : en:Chapter 07
00:31:57.033 : en:Chapter 08
00:37:46.033 : en:Chapter 09
00:44:50.033 : en:Chapter 10
00:54:25.533 : en:Chapter 11
01:00:28.533 : en:Chapter 12
01:05:46.033 : en:Chapter 13
01:09:16.533 : en:Chapter 14
01:14:18.533 : en:Chapter 15
01:19:03.434 : en:Chapter 16




Click Image To View Full Size


Click To View Screenshot
Click To View Screenshot
Click To View Screenshot

Comments: